www.Modern-Talking.ru
 
Регистрация Форум Чат Справка Календарь Поиск Сообщения за день Все разделы прочитаны
Modern Talking Thomas Anders Dieter Bohlen Disco C.C. Catch Systems In Blue Mark Ashley Mark Medlock Сергей Минаев

Вернуться   www.Modern-Talking.ru > Медиа > Видео > Disco stars


Ответ
 
Опции темы Опции просмотра
  #1  
Старый 14.10.2011, 23:02
Аватар для gdb
gdb gdb вне форума
Абориген
 
Регистрация: 03.05.2010
Адрес: Планета Земля.
Сообщений: 2,443
Поблагодарил: 7,227
Поблагодарили 6,347 раз в 1,571 сообщениях
gdb . Такую репутацию нельзя пошатнутьgdb . Такую репутацию нельзя пошатнутьgdb . Такую репутацию нельзя пошатнутьgdb . Такую репутацию нельзя пошатнутьgdb . Такую репутацию нельзя пошатнутьgdb . Такую репутацию нельзя пошатнутьgdb . Такую репутацию нельзя пошатнутьgdb . Такую репутацию нельзя пошатнутьgdb . Такую репутацию нельзя пошатнутьgdb . Такую репутацию нельзя пошатнутьgdb . Такую репутацию нельзя пошатнуть
Хорошо Sandra & Michael Cretu - Desfile del Siglo 1985  

Video: MPEG1 Video 640x480 29.97fps 9216 kbps
Audio: MPEG Audio 44100Hz stereo 224kbps

In The Heat Of The Night & Maria Magdalena
[Ссылки могут видеть только зарегистрированные пользователи. ]
Онлайн
Click here to see full text
http://video.mail.ru/mail/dieter_zhenya/_myvideo/257.html


Добавлено через 2 минуты
Скриншоты сделать не получилось, уж простите. Вместо них онлайн просмотр!

Добавлено через 17 минут
Форумчане! Я путаюсь в том в какой стране это выступление произошло! Франция или Аргентина?

Последний раз редактировалось gdb; 14.10.2011 в 23:46. Причина: Добавлено сообщение
Ответить с цитированием
Эти 7 пользователя(ей) сказали Спасибо gdb за это полезное сообщение:
Chito33 (14.10.2011), Helenna (15.10.2011), Knight (16.10.2011), Michael_Nolen (15.10.2011), prokoff (14.10.2011), SnowG (15.10.2011), VLADIS (14.10.2011)
  #2  
Старый 15.10.2011, 02:43
Аватар для Casandra
Casandra Casandra вне форума
Бывалый
 
Регистрация: 04.10.2006
Адрес: Санкт-Петербург
Сообщений: 547
Поблагодарил: 2,697
Поблагодарили 1,277 раз в 369 сообщениях
Casandra , можно гордитьсяCasandra , можно гордитьсяCasandra , можно гордитьсяCasandra , можно гордитьсяCasandra , можно гордитьсяCasandra , можно гордитьсяCasandra , можно гордитьсяCasandra , можно гордитьсяCasandra , можно гордиться
Забавно! Великий Michael Cretu открывает рот под фанеру с голосом Hubert Kemmler'a
Ответить с цитированием
Этот пользователь сказал Спасибо Casandra за это полезное сообщение:
gdb (15.10.2011)
  #3  
Старый 30.04.2012, 15:55
Аватар для AlexisFlash
AlexisFlash AlexisFlash вне форума
Был тут всегда
 
Регистрация: 23.09.2007
Сообщений: 17,530
Поблагодарил: 1,839
Поблагодарили 47,162 раз в 12,327 сообщениях
AlexisFlash . Такую репутацию нельзя пошатнутьAlexisFlash . Такую репутацию нельзя пошатнутьAlexisFlash . Такую репутацию нельзя пошатнутьAlexisFlash . Такую репутацию нельзя пошатнутьAlexisFlash . Такую репутацию нельзя пошатнутьAlexisFlash . Такую репутацию нельзя пошатнутьAlexisFlash . Такую репутацию нельзя пошатнутьAlexisFlash . Такую репутацию нельзя пошатнутьAlexisFlash . Такую репутацию нельзя пошатнутьAlexisFlash . Такую репутацию нельзя пошатнутьAlexisFlash . Такую репутацию нельзя пошатнуть
Sandra - Maria Magdalena (Live on Desfile Del Siglo 1985)  

раскадровка

Video: Mpeg2 720x576 (16:9) 25 fps 6305 kbps
Audio: Audio Coding 3 48000 Hz stereo 256 kbps
Размер: 166 mb (174657540 bytes)
Длительность: 00:03:41

[Ссылки могут видеть только зарегистрированные пользователи. ]
Ответить с цитированием
Этот пользователь сказал Спасибо AlexisFlash за это полезное сообщение:
badzhoo (01.05.2012)
  #4  
Старый 05.12.2015, 22:15
Kalessin Kalessin вне форума
Новичок
 
Регистрация: 25.04.2011
Сообщений: 26
Поблагодарил: 146
Поблагодарили 40 раз в 14 сообщениях
Kalessin скоро станет знаменитым(-ой)
Sandra - Maria Magdalena (Live at Desfile Del Siglo 1985)

Миниатюры

Click here to see full text
[Ссылки могут видеть только зарегистрированные пользователи. ]


MediaInfo

Click here to see full text
Общее
Полное имя : D:\for M-T.ru\Sandra - Maria Magdalena (Live at Desfile Del Siglo 1985).mpg
Формат : MPEG-PS
Размер файла : 210 Мбайт
Продолжительность : 3 м. 41 с.
Режим общего битрейта : Переменный
Общий поток : 7964 Кбит/сек
Библиотека кодирования : Created by Nero

Видео
Идентификатор : 224 (0xE0)
Формат : MPEG Video
Версия формата : Version 2
Профиль формата : Main@Main
Параметр BVOP формата : Да
Параметр матрицы формата : Выборочная
Продолжительность : 3 м. 41 с.
Вид битрейта : Переменный
Битрейт : 7582 Кбит/сек
Максимальный битрейт : 9610 Кбит/сек
Ширина : 720 пикселей
Высота : 576 пикселей
Соотношение сторон : 4:3
Частота кадров : 25,000 кадров/сек
Стандарт вещания : PAL
Цветовое пространство : YUV
Субдискретизация насыщенности : 4:2:0
Битовая глубина : 8 бит
Тип развёртки : Прогрессивная
Порядок развёртки : Нижнее поле первое
Метод сжатия : С потерями
Бит/(Пиксели*Кадры) : 0.731
Размер потока : 200 Мбайт (95%)
Библиотека кодирования : Created by Nero

Аудио
Идентификатор : 192 (0xC0)
Формат : MPEG Audio
Версия формата : Version 1
Профиль формата : Layer 2
Продолжительность : 3 м. 41 с.
Вид битрейта : Постоянный
Битрейт : 224 Кбит/сек
Каналы : 2 канала
Частота : 48,0 КГц
Метод сжатия : С потерями
Задержка видео : -40 мс.
Размер потока : 5,92 Мбайт (3%)


[Ссылки могут видеть только зарегистрированные пользователи. ]

VHS-"качество". Думайте сами, решайте сами...)
Ответить с цитированием
Эти 4 пользователя(ей) сказали Спасибо Kalessin за это полезное сообщение:
gintus (05.04.2016), Nweia (22.01.2016), serginio169 (06.07.2016), xaraa (06.12.2015)
Ответ

Пожалуйста, добавьте ссылку в закладки социальных сетей!

Опции темы
Опции просмотра

Ваши права в разделе
Вы не можете создавать новые темы
Вы не можете отвечать в темах
Вы не можете прикреплять вложения
Вы не можете редактировать свои сообщения

BB коды Вкл.
Смайлы Вкл.
[IMG] код Вкл.
HTML код Выкл.

Быстрый переход

Похожие темы
Тема Автор Раздел Ответов Последнее сообщение
Michael Cretu - Gambit (Live TVE Tocata, Spain 1986) AlexisFlash 80e 1 03.02.2020 23:45
Michael Cretu - Samurai (Live Einsfestival Musik Convoy 1985) AlexisFlash 80e 4 08.10.2019 19:38
Michael Cretu - Gambit (Live RETE4 Azzurro 1986) AlexisFlash 80e 0 10.02.2012 18:38
Michael Cretu - Schwarzer Engel (Live Einsfestival Musik Convoy) AlexisFlash 80e 0 31.08.2011 03:02


Часовой пояс GMT +4, время: 12:38.

Rambler's Top100
Powered by vBulletin® Version 3.8.6
Copyright ©2000 - 2020, Jelsoft Enterprises Ltd. Перевод: zCarot